One Piece 1999 1080p Full HD ~ Đảo Hải Tặc (ViE Dub - Thuyết minh)

Thảo luận trong 'One Piece' bắt đầu bởi kutunvg2010, 20/10/20.

  1. kutunvg2010

    kutunvg2010 Uploader Thành viên BQT

    Tham gia ngày:
    5/12/14
    Bài viết:
    301
    Đã được thích:
    200
    Đảo Hải Tặc
    One Piece
    Số tập đã cập nhật:
    Lồng Tiếng 628 / Thuyết Minh 951

    (CHẤT LƯỢNG 1080P FULL HD)


    [​IMG]
    Mã:
    Complete name                            : [FoOP - Okami] One Piece Vietdub 337 - 1080p.mkv
    
    Format                                   : Matroska
    Format version                           : Version 4
    File size                                : 604 MiB
    Duration                                 : 24 min 0 s
    Overall bit rate                         : 3 518 kb/s
    Encoded date                             : UTC 2020-10-12 22:17:50
    Writing application                      : mkvmerge v46.0.0 ('No Deeper Escape') 64-bit
    Writing library                          : libebml v1.3.10 + libmatroska v1.5.2
    Attachments                              : OpenSans-Semibold.ttf
    
    Video
    ID                                       : 1
    Format                                   : AVC
    Format/Info                              : Advanced Video Codec
    Format profile                           : [email protected]
    Format settings                          : CABAC / 4 Ref Frames
    Format settings, CABAC                   : Yes
    Format settings, Reference frames        : 4 frames
    Codec ID                                 : V_MPEG4/ISO/AVC
    Duration                                 : 24 min 0 s
    Bit rate                                 : 3 072 kb/s
    Width                                    : 1 920 pixels
    Height                                   : 1 080 pixels
    Display aspect ratio                     : 16:9
    Frame rate mode                          : Constant
    Frame rate                               : 23.976 (23976/1000) FPS
    Color space                              : YUV
    Chroma subsampling                       : 4:2:0
    Bit depth                                : 8 bits
    Scan type                                : Progressive
    Bits/(Pixel*Frame)                       : 0.062
    Stream size                              : 525 MiB (87%)
    Writing library                          : x264 core 120 r2120 0c7dab9
    Encoding settings                        : cabac=1 / ref=4 / deblock=1:1:1 / analyse=0x3:0x113 / me=umh / subme=8 / psy=1 / psy_rd=0.40:0.00 / mixed_ref=1 / me_range=16 / chroma_me=1 / trellis=1 / 8x8dct=1 / cqm=0 / deadzone=21,11 / fast_pskip=1 / chroma_qp_offset=-2 / threads=8 / sliced_threads=0 / nr=0 / decimate=1 / interlaced=0 / bluray_compat=0 / constrained_intra=0 / bframes=3 / b_pyramid=2 / b_adapt=2 / b_bias=0 / direct=3 / weightb=1 / open_gop=0 / weightp=2 / keyint=250 / keyint_min=23 / scenecut=40 / intra_refresh=0 / rc_lookahead=50 / rc=2pass / mbtree=1 / bitrate=3072 / ratetol=1.0 / qcomp=0.60 / qpmin=0 / qpmax=69 / qpstep=4 / cplxblur=20.0 / qblur=0.5 / vbv_maxrate=6144 / vbv_bufsize=15360 / nal_hrd=none / ip_ratio=1.40 / aq=1:0.60
    Default                                  : Yes
    Forced                                   : No
    
    Audio #1
    ID                                       : 2
    Format                                   : AAC LC
    Format/Info                              : Advanced Audio Codec Low Complexity
    Codec ID                                 : A_AAC-2
    Duration                                 : 23 min 59 s
    Bit rate                                 : 192 kb/s
    Channel(s)                               : 2 channels
    Channel layout                           : L R
    Sampling rate                            : 44.1 kHz
    Frame rate                               : 43.066 FPS (1024 SPF)
    Compression mode                         : Lossy
    Stream size                              : 32.3 MiB (5%)
    Title                                    : Pops Anime Long Tieng - Mux by kutunvg2010
    Language                                 : Vietnamese
    Default                                  : Yes
    Forced                                   : No
    
    Audio #2
    ID                                       : 3
    Format                                   : AAC LC
    Format/Info                              : Advanced Audio Codec Low Complexity
    Codec ID                                 : A_AAC-2
    Duration                                 : 24 min 0 s
    Bit rate                                 : 128 kb/s
    Channel(s)                               : 2 channels
    Channel layout                           : L R
    Sampling rate                            : 44.1 kHz
    Frame rate                               : 43.066 FPS (1024 SPF)
    Compression mode                         : Lossy
    Stream size                              : 22.0 MiB (4%)
    Title                                    : Ban Goc
    Language                                 : Japanese
    Default                                  : No
    Forced                                   : No
    
    Audio #3
    ID                                       : 4
    Format                                   : AAC LC
    Format/Info                              : Advanced Audio Codec Low Complexity
    Codec ID                                 : A_AAC-2
    Duration                                 : 24 min 0 s
    Bit rate                                 : 137 kb/s
    Channel(s)                               : 2 channels
    Channel layout                           : L R
    Sampling rate                            : 44.1 kHz
    Frame rate                               : 43.066 FPS (1024 SPF)
    Compression mode                         : Lossy
    Stream size                              : 23.6 MiB (4%)
    Title                                    : Tvhay Thuyet Minh - Mux bu kutunvg2010
    Language                                 : Vietnamese
    Default                                  : No
    Forced                                   : No

    Bài Vietsub: https://photruyen.net/threads/one-piece-tv-series-tv-special-movie-vietsub.498/
     
    Chỉnh sửa cuối: 24/11/20
  2. MiHowl

    MiHowl New Member

    Tham gia ngày:
    8/12/14
    Bài viết:
    12
    Đã được thích:
    5
    Thank!
    Mình thấy nên cắt bỏ đoạn Opening, giới thiệu tập trước và Ending đi để dung lượng file giảm đi.
    Mục đích mọi người là lưu lại để xem nên cũng sẽ tiện cho lúc xem lại không phải tua qua đoạn đầu.
    Mình chỉ nêu ý kiến riêng thôi.
    Thank mọi người đã quan tâm. :) :) :).
     
    minhthong1981 and kutunvg2010 like this.
  3. kutunvg2010

    kutunvg2010 Uploader Thành viên BQT

    Tham gia ngày:
    5/12/14
    Bài viết:
    301
    Đã được thích:
    200
    Cám ơn ý kiến của bạn nha :D
    Mình thì muốn lưu bản hoàn chỉnh hơn, ai muốn cắt thì có thể download về rồi cắt ạ.
     
    minhthong1981 and MiHowl like this.
  4. minhthong1981

    minhthong1981 New Member

    Tham gia ngày:
    17/12/14
    Bài viết:
    5
    Đã được thích:
    9
    nhưng nếu tự cắt thì bác @kutunvg2010 có đề nghị gì về tool để làm việc này mà ko giảm chất lượng hình ảnh + âm thanh ko bác?
     
    kutunvg2010 thích bài này.
  5. kutunvg2010

    kutunvg2010 Uploader Thành viên BQT

    Tham gia ngày:
    5/12/14
    Bài viết:
    301
    Đã được thích:
    200
    Mình thì không rành về mấy phần mềm, về cắt video thì mình dùng chung combo của AVS, có AVS Audio để sửa audio, AVS Video để làm video :D bác có thể tham khảo, bộ này mình mua.
     
    minhthong1981 thích bài này.
  6. kutunvg2010

    kutunvg2010 Uploader Thành viên BQT

    Tham gia ngày:
    5/12/14
    Bài viết:
    301
    Đã được thích:
    200
    Cập nhật mùa 11 Quần đảo Sabaody (382 - 407).
     
  7. MiHowl

    MiHowl New Member

    Tham gia ngày:
    8/12/14
    Bài viết:
    12
    Đã được thích:
    5
    anh em có thể tham khảo phần mềm MKVToolNix.
    [​IMG]
     
    Chỉnh sửa cuối: 28/10/20
    minhthong1981 and kutunvg2010 like this.
  8. kutunvg2010

    kutunvg2010 Uploader Thành viên BQT

    Tham gia ngày:
    5/12/14
    Bài viết:
    301
    Đã được thích:
    200
    Cập nhật mùa 12 Đảo Nữ Quốc (408 - 421).
     
  9. kutunvg2010

    kutunvg2010 Uploader Thành viên BQT

    Tham gia ngày:
    5/12/14
    Bài viết:
    301
    Đã được thích:
    200
    Lên mùa 13 Ngục Impel Down (422 - 458)
     
  10. kutunvg2010

    kutunvg2010 Uploader Thành viên BQT

    Tham gia ngày:
    5/12/14
    Bài viết:
    301
    Đã được thích:
    200
    Cập nhật mùa 14 Tổng bộ Hải quân Marineford (459 - 516) lồng tiếng.
    Và bên Tvhayz đã trở lại với bản thuyết minh, cập nhật tới tập 949 thuyết minh.
     
  11. khanhkidcool

    khanhkidcool New Member

    Tham gia ngày:
    8/12/14
    Bài viết:
    1
    Đã được thích:
    2
    Cám ơn bài viết của ad nhé.
     
    thaihoa91 and kutunvg2010 like this.
  12. kutunvg2010

    kutunvg2010 Uploader Thành viên BQT

    Tham gia ngày:
    5/12/14
    Bài viết:
    301
    Đã được thích:
    200
  13. quandh.dh

    quandh.dh New Member

    Tham gia ngày:
    19/11/20
    Bài viết:
    1
    Đã được thích:
    1
    tuyệt vời
     
    kutunvg2010 thích bài này.
  14. kutunvg2010

    kutunvg2010 Uploader Thành viên BQT

    Tham gia ngày:
    5/12/14
    Bài viết:
    301
    Đã được thích:
    200
    Cập nhật Mùa 16: (579 - 628) Lồng tiếng / Thuyết minh Punk Hazard
     
  15. kutunvg2010

    kutunvg2010 Uploader Thành viên BQT

    Tham gia ngày:
    5/12/14
    Bài viết:
    301
    Đã được thích:
    200

Chia sẻ trang này